Skip to main content

The Alchemystics Live at Disc Jam,Hylands Orchard & Brewery on 2011-06-19

Audio Preview

etree
The Alchemystics Live at Disc Jam,Hylands Orchard & Brewery on 2011-06-19


Topics disc jam 2011


01. Intro>Dedication
02. Alch. Mosh Up>
03. What we need (Spread Hope)
04. What I'm saying
05. Let Me In
06. Rise Up
07. Type of Prayer
08. Elements
09. Peace of Mind
10. Jump>Shout
11. Changes
12. Leggo
13. "Everyone needs a friend"
14. The Heathen (Marley)
15. Shine I Girl
16. Fire
17. Overcome


Collection TheAlchemystics
Band/Artist The Alchemystics
Venue Disc Jam,Hylands Orchard & Brewery
Location Sturbridge, MA

Source Schoeps MK41>KC5>CMC6>Sonosax SX-M2>Apogee Mini-me(aes out,24bit/96khz)>COAX>Edirol R-44 & Soundboard>R-44
Lineage SDHC Card>USB>Macbook Pro>Audacity(mixing)>Wave Editor(tracking,fades,add gain,resample(izotope)/dither(mbit+)to 16 bit/44.1k)>XAct(FLAC 8,ffp,fix sbe)
Taped by Andy Murray
Transferred by Andy Murray

Notes

The Alchemystics
2011-06-19
Disc Jam
Hylands Orchard & Brewery
Sturbridge, MA

Recorded and transferred by Andy Murray

Mics were DIN 50' from stage right of center

Schoeps MK41>KC5>CMC6>Sonosax SX-M2>Apogee Mini-me(aes out24bit/96khz)>COAX>Edirol R-44 & Soundboard>R-44

SDHC Card>USB>Macbook Pro>Audacity(mixing)>Wave Editor(tracking,fades,add gain,resample(izotope)/dither(mbit+) to 16bit/44.1 khz)>XACT(FLAC 8,ffp,fix sbe)

2 Discs
1 Set

length expanded size cdr WAVE problems fmt ratio filename
3:17.68 34910780 B --- -- ----- alchemystics2011-06-19_mk41mix_1644_d1t01.wav
3:28.37 36778268 B --- -- ----- alchemystics2011-06-19_mk41mix_1644_d1t02.wav
8:09.62 86405468 B --- -- ----- alchemystics2011-06-19_mk41mix_1644_d1t03.wav
5:47.23 61264940 B --- -- ----- alchemystics2011-06-19_mk41mix_1644_d1t04.wav
10:56.22 115770188 B --- -- ----- alchemystics2011-06-19_mk41mix_1644_d1t05.wav
11:06.13 117513020 B --- -- ----- alchemystics2011-06-19_mk41mix_1644_d1t06.wav
4:07.37 43657868 B --- -- ----- alchemystics2011-06-19_mk41mix_1644_d1t07.wav
5:54.01 62447996 B --- -- ----- alchemystics2011-06-19_mk41mix_1644_d1t08.wav
5:07.23 54208940 B --- -- ----- alchemystics2011-06-19_mk41mix_1644_d1t09.wav
7:31.65 79709324 B --- -- ----- alchemystics2011-06-19_mk41mix_1644_d1t10.wav
5:32.03 58571900 B --- -- ----- alchemystics2011-06-19_mk41mix_1644_d1t11.wav
5:25.19 57374732 B --- -- ----- alchemystics2011-06-19_mk41mix_1644_d1t12.wav
7:30.53 79504700 B --- -- ----- alchemystics2011-06-19_mk41mix_1644_d1t13.wav
6:05.08 64404860 B --- -- ----- alchemystics2011-06-19_mk41mix_1644_d1t14.wav
5:41.31 60225356 B --- -- ----- alchemystics2011-06-19_mk41mix_1644_d1t15.wav
5:49.61 61707116 B --- -- ----- alchemystics2011-06-19_mk41mix_1644_d1t16.wav
9:16.41 98174876 B --- -- ----- alchemystics2011-06-19_mk41mix_1644_d1t17.wav
110:47.42 1172630332 B 1.0000 (17 files)

comment
Reviews

There are no reviews yet. Be the first one to write a review.
DOWNLOAD OPTIONS
Uploaded by
andyjah
on 7/7/2011
Views
254
SIMILAR ITEMS (based on metadata)
The Alchemystics
by The Alchemystics
etree
eye 122
favorite 0
comment 0
Source: Schoeps MK41>KC5>CMC6>Sonosax SX-M2>Apogee Mini-me(aes out,24bit/96khz)>COAX>Edirol R-44 & Soundboard>R-44
The Alchemystics
by The Alchemystics
etree
eye 56
favorite 0
comment 0
Source: Schoeps Mk41>KC5>CMC6>Sonosax SX-R4(24bit/96khz) & Soundboard
The Alchemystics
by The Alchemystics
etree
eye 68
favorite 0
comment 0
Source: Schoeps Mk41>KC5>CMC6>Sonosax SX-R4(24bit/96khz) & Soundboard
Sun Jones
by Sun Jones
etree
eye 122
favorite 0
comment 0
Source: Schoeps MK41>KC5>CMC6>Sonosax SX-M2>Apogee Mini-me(aes out,24bit/96khz)>COAX>Edirol R-44 & Soundboard>R-44
Nate Wilson Group
by Nate Wilson Group
etree
eye 48
favorite 0
comment 0
Source: Schoeps MK41>KC5>CMC6>Sonosax SX-M2>Apogee Mini-me(aes out,24bit/96khz)>COAX>Edirol R-44
Otis Grove
by Otis Grove
etree
eye 69
favorite 0
comment 0
Source: Schoeps MK41>KC5>CMC6>Sonosax SX-M2>Apogee Mini-me(aes out,24bit/96khz)>COAX>Edirol R-44 & Soundboard>R-44
Sun Jones
etree
eye 187
favorite 0
comment 0
Source: Schoeps MK41>KC5>CMC6>Sonosax SX-M2>Apogee Mini-me(aes out,24bit/96khz)>COAX>Edirol R-44 & Soundboard>R-44
Nate Wilson Group
by Nate Wilson Group
etree
eye 44
favorite 0
comment 0
Source: Schoeps MK41>KC5>CMC6>Sonosax SX-M2>Apogee Mini-me(aes out,24bit/96khz)>COAX>Edirol R-44 & Soundboard>R-44
Nate Wilson Group
by Nate Wilson Group
etree
eye 44
favorite 0
comment 0
Source: Schoeps MK41>KC5>CMC6>Sonosax SX-M2>Apogee Mini-me(aes out,24bit/96khz)>COAX>Edirol R-44
Zach Deputy
by Zach Deputy
etree
eye 124
favorite 0
comment 0
Source: Schoeps MK41>KC5>CMC6>Sonosax SX-M2>Apogee Mini-me(aes out,24bit/96khz)>COAX>Edirol R-44 & Soundboard>R-44